العودة   سينما العرب > المنتدى العام للأفلام > تحميل الأفلام الأجنبية بروابط خارجية
التسجيل التعليمات قائمة الأعضاء التقويم اجعل جميع المنتديات مقروءة


Prime Mover 2009 DVDRip

General Complete name : Prime Mover DVDRiP XViD SB0.avi Format : AVI Format/Info : Audio Video Interleave File size : 700 MiB Duration : 1h 34mn Overall bit rate :

رد
 
LinkBack أدوات الموضوع طرق مشاهدة الموضوع
قديم 04-16-2010, 07:32 PM
  #1 (permalink)
عضو نشيط
تاريخ التسجيل: Mar 2010
المشاركات: 338
معدل تقييم المستوى: 11
x5355 is on a distinguished road
افتراضي Prime Mover 2009 DVDRip

تحميل اغاني - افلام
Loading...
2009, dvdrip, mover, prime

[img]http://i44.*******.com/34ioj6h.jpg[/img]

[img]http://i45.*******.com/2nw2uxe.png[/img]
اقتباس:
General
Complete name : Prime Mover DVDRiP XViD SB0.avi
Format : AVI
Format/Info : Audio Video Interleave
File size : 700 MiB
Duration : 1h 34mn
Overall bit rate : 1 031 Kbps
Writing application : VirtualDubMod 1.5.4.1 (build 2178/release)
Writing library : VirtualDubMod build 2178/release

Video
Format : MPEG-4 Visual
Format profile : Streaming Video@L1
Format settings, BVOP : Yes
Format settings, QPel : No
Format settings, GMC : No warppoints
Format settings, Matrix : Custom
Codec ID : XVID
Codec ID/Hint : XviD
Duration : 1h 34mn
Bit rate : 916 Kbps
Width : 640 pixels
Height : 352 pixels
Display aspect ratio : 16/9
Frame rate : 25.000 fps
Resolution : 24 bits
Colorimetry : 4:2:0
Scan type : Progressive
Bits/(Pixel*Frame) : 0.163
Stream size : 622 MiB (89%)
Writing library : XviD 1.1.0 (UTC 2005-11-22)

Audio
Format : MPEG Audio
Format version : Version 1
Format profile : Layer 3
Codec ID : 55
Codec ID/Hint : MP3
Duration : 1h 34mn
Bit rate mode : Variable
Bit rate : 102 Kbps
Minimum bit rate : 112 Kbps
Channel(s) : 2 channels
Sampling rate : 44.1 KHz
Resolution : 16 bits
Stream size : 69.6 MiB (10%)
Alignment : Aligned on interleaves
Interleave, duration : 26 ms (0.65 video frame)
Interleave, preload duration : 471 ms
Writing library : LAME3.98r
Encoding settings : ABR
Language : English

Thomas is a talented truck detailer, whose love for the beautiful Melissa is
matched only by his desire to own a prime mover of his own and start his life as
a truckie. After borrowing money from a dodgy loan shark, Thomas's wishes seem
to be coming true. But as Thomas sinks further into debt, his desperation for
work keeps him away from Melissa. Will they be able to cruise on easy street, or
is this the road to nowhere?
[img]http://i44.*******.com/2vl4eiw.jpg[/img]

[img]http://i50.*******.com/349e3at.png[/img]
كود:
http://*******.com/dl/38231680/8d5db92/aAF-PMoverDvD.part1.rar.html
http://*******.com/dl/38231907/9a17457/aAF-PMoverDvD.part2.rar.html
http://*******.com/dl/38232229/425c373/aAF-PMoverDvD.part3.rar.html
http://*******.com/dl/38232451/901052f/aAF-PMoverDvD.part4.rar.html
http://*******.com/dl/38232716/e68046e/aAF-PMoverDvD.part5.rar.html
http://*******.com/dl/38232932/5ed48f8/aAF-PMoverDvD.part6.rar.html
http://*******.com/dl/38233222/e031807/aAF-PMoverDvD.part7.rar.html
[img]http://i46.*******.com/29gfn89.jpg[/img]

Loading...
بوب
x5355 غير متواجد حالياً  
رد مع اقتباس
رد

الكلمات الدليلية
2009, dvdrip, mover, prime

تحميل أفلام, افلام مترجمة, تحميل أغاني



الذين يشاهدون محتوى الموضوع الآن : 1 ( الأعضاء 0 والزوار 1)
 
أدوات الموضوع
طرق مشاهدة الموضوع

تعليمات المشاركة
لا تستطيع إضافة مواضيع جديدة
لا تستطيع الرد على المواضيع
لا تستطيع إرفاق ملفات
لا تستطيع تعديل مشاركاتك

BB code is متاحة
كود [IMG] متاحة
كود HTML معطلة
Trackbacks are متاحة
Pingbacks are متاحة
Refbacks are متاحة

المواضيع المتشابهه
الموضوع كاتب الموضوع المنتدى مشاركات آخر مشاركة
تحميل البرايم الثالث من ستار اكاديمي 6 كامل Star Academy 6 - Prime 3 روابط سريعة عدة سرفرات kenow878 المسلسلات العربية الخاصة بالمنتدى 6 05-26-2011 10:18 PM
برايم ستار اكاديمى 6 فيديو البرايم الاول كامل 2009 Star Academy 6 Prime 1 kenow878 المسلسلات العربية الخاصة بالمنتدى 9 10-01-2009 05:39 AM
Star Academy 6 - Full Primes [Prime 6] DVD Quality Avi format size 300 MB kenow878 قائمة بأحدث الأعمال الحصرية 0 04-01-2009 07:57 AM
تحميل البرايم الثاني من ستار اكاديمى 6 - Star Academy 6 - Prime 2 روابط سريعة kenow878 المسلسلات العربية الخاصة بالمنتدى 7 03-14-2009 02:19 PM
Star Academy 6 Prime 1 الحفلة كاملة 2009 على عدة سرفرات تحميل روابط مباشرة kenow878 قائمة بأحدث الأعمال الحصرية 0 02-25-2009 05:09 PM

كلمات البحث - Keywords
أغاني mp3, مشاهدة افلام, اغنية, mp3, تحميل أغاني, تحميل افلام, مشاهدة مسلسلات,
تحميل اغاني عربي mp3 مشاهدة افلام مترجمة تحميل افلام اجنبي افلام عربي فيلم مترجم

جميع الأوقات بتوقيت GMT. الساعة الآن 01:02 AM.


Disclaimer: This site does not store any files on its server. All contents are provided by non-affiliated third parties

Security byi.s.s.w

 

 
:: تصميم :/ مجنــ قلبي ـون ::





Search Engine Friendly URLs by vBSEO