العودة   سينما العرب > المنتدى العام للأفلام > تحميل الأفلام الأجنبية بروابط خارجية
التسجيل التعليمات قائمة الأعضاء التقويم اجعل جميع المنتديات مقروءة


Date Night (2010) TS XViD

*********** **** **** *** ******** *********** **** *** ********** * * * * * * * *

رد
 
LinkBack أدوات الموضوع طرق مشاهدة الموضوع
قديم 04-18-2010, 11:20 PM
  #1 (permalink)
عضو نشيط
تاريخ التسجيل: Mar 2010
المشاركات: 338
معدل تقييم المستوى: 11
x5355 is on a distinguished road
افتراضي Date Night (2010) TS XViD

تحميل اغاني - افلام
Loading...
2010, date, night, xvid

Date Night (2010) XViD htPaKfw.jpeg

[img]http://i45.*******.com/2nw2uxe.png[/img]
اقتباس:
*********** **** **** *** ******** *********** **** *** **********
* * * * * * * * * * * * * * * * * * * * * * * * *
* * * * * * * * * * * * * *
$ $ * $ $ * $ * *$* $ $ * $ $ * $
$ $ $ $ $ $ $ $ $ $ $ $ $ $
$ $ $ $ $ $ $ $ $ $ $ $ $ $ $ $ $ $ $ $ $ $ $
$$$$$$$$$$$ $$$ $$$ $$$ $$$ $$$$$$$$ $$$$$$$$$$$ $$$ $$$$ $$$$$$$$$$




Another Fine Release Brought to you from - IMAGiNE

************************************************** ****************************** ************************************
Date Night TS XViD - IMAGiNE
************************************************** ****************************** ************************************

Ripper ...........: IMAGiNE IMDB Rating.......:7.1/10
Video Codec.......: XViD Release Date......:09/04/10
Audio Codec.......:MP3 Theatre Date......:17/04/10
Audio Bitrate.....:128 Runtime.......:1h 22mn
Subtitles.........:ENG WHEN NEEDED Language..........:ENGLISH
Resolution...... 704 x 352 IMDb URL..........:http://www.imdb.com/title/tt1279935/



DETAILS:

Video
ID : 0
Format : MPEG-4 Visual
Format profile : Advanced Simple@L5
Format settings, BVOP : Yes
Format settings, QPel : No
Format settings, GMC : No warppoints
Format settings, Matrix : Default (MPEG)
Muxing mode : Packed bitstream
Codec ID : XVID
Codec ID/Hint : XviD
Duration : 1h 22mn
Bit rate : 2 254 Kbps
Width : 704 pixels
Height : 352 pixels
Display aspect ratio : 2.000
Frame rate : 25.000 fps
Resolution : 8 bits
Colorimetry : 4:2:0
Scan type : Progressive
Bits/(Pixel*Frame) : 0.364
Stream size : 1.29 GiB (94%)
Writing library : XviD 1.2.1 (UTC 2008-12-04)

Audio
ID : 1
Format : MPEG Audio
Format version : Version 1
Format profile : Layer 3
Codec ID : 55
Codec ID/Hint : MP3
Duration : 1h 22mn
Bit rate mode : Constant
Bit rate : 128 Kbps
Channel(s) : 2 channels
Sampling rate : 44.1 KHz
Stream size : 75.1 MiB (5%)
Alignment : Split accross interleaves
Interleave, duration : 40 ms (1.00 video frame)
Interleave, preload duration : 500 ms


NOTES:

IMAGiNE bringing you another release.....Date Night
Okay this source has some issues to say the least. Before you start complaining we want you to know that this source has a strobing affect to it. It is still very watchable, but still there. Now the colors... This is another one of those blue tinted sources, so the colors are not the best on this release. We have done our normal things to this release, tweaked the colors, sat, and other things. Then synced our line audio to it.

Enjoy.
كود:
http://www.imdb.com/title/tt1279935/
Date Night (2010) XViD jdcQovbL.png

Date Night (2010) XViD Uu7ZozLG.png

Date Night (2010) XViD sviTbpC2.png

Date Night (2010) XViD k9U9uhx0.png

[img]http://i50.*******.com/349e3at.png[/img]
كود:
http://*******.com/dl/38591424/9627d79/DL.TS.XviD.IMAGiNE.part1.rar.html
http://*******.com/dl/38591804/9109925/DL.TS.XviD.IMAGiNE.part2.rar.html
http://*******.com/dl/38592240/b526861/DL.TS.XviD.IMAGiNE.part3.rar.html
http://*******.com/dl/38592613/d7a4bd0/DL.TS.XviD.IMAGiNE.part4.rar.html
http://*******.com/dl/38593227/91f07d3/DL.TS.XviD.IMAGiNE.part5.rar.html
http://*******.com/dl/38593671/255816d/DL.TS.XviD.IMAGiNE.part6.rar.html
http://*******.com/dl/38594308/90ccb45/DL.TS.XviD.IMAGiNE.part7.rar.html
http://*******.com/dl/38594340/a9e7d73/DL.TS.XviD.IMAGiNE.part8.rar.html
[img]http://i46.*******.com/29gfn89.jpg[/img]

Loading...
بوب
x5355 غير متواجد حالياً  
رد مع اقتباس
رد

الكلمات الدليلية
2010, date, night, xvid

تحميل أفلام, افلام مترجمة, تحميل أغاني



الذين يشاهدون محتوى الموضوع الآن : 1 ( الأعضاء 0 والزوار 1)
 
أدوات الموضوع
طرق مشاهدة الموضوع

تعليمات المشاركة
لا تستطيع إضافة مواضيع جديدة
لا تستطيع الرد على المواضيع
لا تستطيع إرفاق ملفات
لا تستطيع تعديل مشاركاتك

BB code is متاحة
كود [IMG] متاحة
كود HTML معطلة
Trackbacks are متاحة
Pingbacks are متاحة
Refbacks are متاحة

المواضيع المتشابهه
الموضوع كاتب الموضوع المنتدى مشاركات آخر مشاركة
Date Night TS XViD-IMAGiNE AbdUlilaH تحميل الأفلام الأجنبية بروابط خارجية 0 04-17-2010 08:46 PM
WWE Monday Night RAW 2010.04.05 mazar1 تحميل المسلسلات بروابط خارجية 0 04-07-2010 05:18 AM
WWE.Friday.Night.Smackdown.2010.03.19.WS.PDTV.XviD-KYR arabwy قسم المصارعة الحرة WWE 3 03-25-2010 08:58 AM
تحميل عرض الاسماك دون WWE.Friday.Night.Smackdown.2010.03.19.WS.PDTV.XviD-KYR علي اكثر من سيرفر arabwy قائمة بأحدث الأعمال الحصرية 0 03-19-2010 12:50 PM

كلمات البحث - Keywords
أغاني mp3, مشاهدة افلام, اغنية, mp3, تحميل أغاني, تحميل افلام, مشاهدة مسلسلات,
تحميل اغاني عربي mp3 مشاهدة افلام مترجمة تحميل افلام اجنبي افلام عربي فيلم مترجم

جميع الأوقات بتوقيت GMT. الساعة الآن 11:52 AM.


Disclaimer: This site does not store any files on its server. All contents are provided by non-affiliated third parties

Security byi.s.s.w

 

 
:: تصميم :/ مجنــ قلبي ـون ::





Search Engine Friendly URLs by vBSEO