العودة   سينما العرب > المنتدى العام للأفلام > تحميل الأفلام بالتورنت
التسجيل التعليمات قائمة الأعضاء التقويم اجعل جميع المنتديات مقروءة


فيلم الاكشن The A-Team 2010 TS XViD - IMAGiNE

The A-Team 2010 TS XViD - IMAGiNE INFO Ripper ...........:IMAGiNE IMDB Rating.......:7.2/10 Video Codec.......:XVID Release Date......:06/11/10 Audio Codec.......:MP3 Theatre Date......:06/11/10 Audio Bitrate.....:128 Runtime...........:1h 47mn

رد
 
LinkBack أدوات الموضوع طرق مشاهدة الموضوع
قديم 06-12-2010, 07:08 PM
  #1 (permalink)
عضو جديد
 الصورة الرمزية BLACK MOOD
تاريخ التسجيل: Jun 2010
المشاركات: 17
معدل تقييم المستوى: 0
BLACK MOOD is on a distinguished road
افتراضي فيلم الاكشن The A-Team 2010 TS XViD - IMAGiNE

تحميل اغاني - افلام
Loading...
2010, ateam, الاكشن, imagine, xvid, فيلم

The A-Team 2010 TS XViD - IMAGiNE

[IMG]http://i48.*******.com/2i7snlz.jpg[/IMG]


INFO

Ripper ...........:IMAGiNE
IMDB Rating.......:7.2/10
Video Codec.......:XVID
Release Date......:06/11/10
Audio Codec.......:MP3
Theatre Date......:06/11/10
Audio Bitrate.....:128
Runtime...........:1h 47mn
Subtitles.........:NIL
Language..........:ENGLISH
Resolution........:704 x 304
IMDb URL..........:http://www.imdb.com/title/tt0429493/

Video
Format : MPEG-4 Visual
Format profile : Streaming Video@L1
Format settings, BVOP : Yes
Format settings, QPel : No
Format settings, GMC : No warppoints
Format settings, Matrix : Default
Codec ID : XVID
Codec ID/Hint : XviD
Duration : 1h 47mn
Bit rate : 1 687 Kbps
Width : 704 pixels
Height : 304 pixels
Display aspect ratio : 2.35
Frame rate : 25.000 fps
Resolution : 24 bits
Colorimetry : 4:2:0
Scan type : Progressive
Bits/(Pixel*Frame) : 0.315
Stream size : 1.27 GiB (92%)
Writing library : XviD 50

Audio
Format : MPEG Audio
Format version : Version 1
Format profile : Layer 3
Codec ID : 55
Codec ID/Hint : MP3
Duration : 1h 47mn
Bit rate mode : Constant
Bit rate : 128 Kbps
Minimum bit rate : 128 Kbps
Channel(s) : 2 channels
Sampling rate : 44.1 KHz
Resolution : 16 bits
Stream size : 98.5 MiB (7%)
Alignment : Split accross interleaves
Interleave, duration : 40 ms (1.00 video frame)
Interleave, preload duration : 500 ms


SCREEN SHOT

A-Team 2010 XViD IMAGiNE u1ERM1rG.png

A-Team 2010 XViD IMAGiNE YB7CZqCW.png

A-Team 2010 XViD IMAGiNE b1iAZrxq.png

DOWNLOAD


التحميل هنا

Loading...
بوب
BLACK MOOD غير متواجد حالياً  
رد مع اقتباس
قديم 02-01-2012, 07:18 PM
  #2 (permalink)
عضو مشارك
تاريخ التسجيل: Nov 2011
المشاركات: 33
معدل تقييم المستوى: 0
s7aab is on a distinguished road
افتراضي

يسلموووووو
s7aab غير متواجد حالياً  
رد مع اقتباس
قديم 09-02-2012, 04:01 PM
  #3 (permalink)
عضو جديد
تاريخ التسجيل: Sep 2012
المشاركات: 11
معدل تقييم المستوى: 0
طقطوقي is on a distinguished road
افتراضي

مشكووور مشكووور مشكووور مشكووور مشكووور مشكووور مشكووور مشكووور مشكووور مشكووور مشكووور
مشكووور مشكووور مشكووور مشكووور مشكووور مشكووور مشكووور مشكووور مشكووور مشكووور
مشكووور مشكووور مشكووور مشكووور مشكووور مشكووور مشكووور مشكووور مشكووور
مشكووور مشكووور مشكووور مشكووور مشكووور مشكووور مشكووور مشكووور
مشكووور مشكووور مشكووور مشكووور مشكووور مشكووور مشكووور
مشكووور مشكووور مشكووور مشكووور مشكووور مشكووور
مشكووور مشكووور مشكووور مشكووور مشكووور
مشكووور مشكووور مشكووور مشكووور
مشكووور مشكووور مشكووور
مشكووور مشكووور
مشكووور
_______
طقطوقي غير متواجد حالياً  
رد مع اقتباس
رد

الكلمات الدليلية
2010, ateam, الاكشن, imagine, xvid, فيلم

تحميل أفلام, افلام مترجمة, تحميل أغاني



الذين يشاهدون محتوى الموضوع الآن : 1 ( الأعضاء 0 والزوار 1)
 
أدوات الموضوع
طرق مشاهدة الموضوع

تعليمات المشاركة
لا تستطيع إضافة مواضيع جديدة
لا تستطيع الرد على المواضيع
لا تستطيع إرفاق ملفات
لا تستطيع تعديل مشاركاتك

BB code is متاحة
كود [IMG] متاحة
كود HTML معطلة
Trackbacks are متاحة
Pingbacks are متاحة
Refbacks are متاحة

المواضيع المتشابهه
الموضوع كاتب الموضوع المنتدى مشاركات آخر مشاركة
فيلم البوكس افيس Repo Men 2010 TS XViD – IMAGiNE AbdUlilaH تحميل الأفلام الأجنبية بروابط خارجية 1 05-28-2010 01:21 AM
Legion 2010 DVDRip XviD AC3-TEAM AbdUlilaH تحميل الأفلام الأجنبية بروابط خارجية 2 04-01-2010 01:57 PM
تحميل ترجمة فيلم Cash (Ca$h) 2010 ترجمة AC TEAM للنسخة DVDRip.XviD-M00DY kenow878 قائمة بأحدث الأعمال الحصرية 0 02-08-2010 08:16 PM
حصريا فيلم الاكشن SEAL Team VI 2008 DVDRip XviD-VoMiT AbdUlilaH تحميل الأفلام الأجنبية بروابط خارجية 0 11-16-2009 02:01 PM
فيلم الاكشن GAMER (2009) Workprint READ NFO DivX-Team AbdUlilaH تحميل الأفلام الأجنبية بروابط خارجية 0 11-03-2009 07:38 PM

كلمات البحث - Keywords
أغاني mp3, مشاهدة افلام, اغنية, mp3, تحميل أغاني, تحميل افلام, مشاهدة مسلسلات,
تحميل اغاني عربي mp3 مشاهدة افلام مترجمة تحميل افلام اجنبي افلام عربي فيلم مترجم

جميع الأوقات بتوقيت GMT. الساعة الآن 05:03 AM.


Disclaimer: This site does not store any files on its server. All contents are provided by non-affiliated third parties

Security byi.s.s.w

 

 
:: تصميم :/ مجنــ قلبي ـون ::





Search Engine Friendly URLs by vBSEO