العودة   سينما العرب > المنتدى العام للأفلام > تحميل الأفلام بالتورنت
التسجيل التعليمات قائمة الأعضاء التقويم اجعل جميع المنتديات مقروءة


فيلم الاكشن والدراما Hammer of the Gods 2009 DVDRip XviD.FEEL-FREE

Hammer of the Gods 2009 DVDRip XviD.FEEL-FREE INFO Genre:Action | Adventure | Drama | Fantasy | Horror | Thriller Language:English IMDb: Encoder: Tony2 .............................................. General

رد
 
LinkBack أدوات الموضوع طرق مشاهدة الموضوع
قديم 06-12-2010, 07:12 PM
  #1 (permalink)
عضو جديد
 الصورة الرمزية BLACK MOOD
تاريخ التسجيل: Jun 2010
المشاركات: 17
معدل تقييم المستوى: 0
BLACK MOOD is on a distinguished road
افتراضي فيلم الاكشن والدراما Hammer of the Gods 2009 DVDRip XviD.FEEL-FREE

تحميل اغاني - افلام
Loading...
2009, الاكشن, dvdrip, gods, hammer, xvidfeelfree, فيلم, والدراما

Hammer of the Gods 2009 DVDRip XviD.FEEL-FREE

والدراما Hammer Gods 2009 DVDRip Thor-Hammer-of-the-Gods-(2009)-TVRiP-Lonewolf.jpg

INFO


Genre:Action | Adventure | Drama | Fantasy | Horror | Thriller
Language:English
IMDb:http://www.imdb.com/title/tt1260572
Encoder: Tony2
..............................................
General
Complete name : Hammer of the Gods 2009 DVDRip XviD.FEEL-FREE
Format : AVI
Format/Info : Audio Video Interleave
File size : 826 MiB
Duration : 1h 26mn
..............................................
Video
ID : 0
Format : MPEG-4 Visual
Codec ID : DIV3
Codec ID/Hint : DivX 3 Low
Duration : 1h 26mn
Bit rate : 1 199 Kbps
Width : 704 pixels
Height : 304 pixels
Display aspect ratio : 2.35:1
Frame rate : 23.976 fps
Resolution : 24 bits
Bits/(Pixel*Frame) : 0.234
Stream size : 740 MiB (90%)
...............................................
Audio
ID : 1
Format : MPEG Audio
Format version : Version 1
Format profile : Layer 3
Format settings, Mode : Joint stereo / MS Stereo
Codec ID : 55
Codec ID/Hint : MP3
Duration : 1h 26mn
Bit rate mode : Constant
Bit rate : 128 Kbps
Channel(s) : 2 channels
Sampling rate : 44.1 KHz
Resolution : 16 bits
Stream size : 79.0 MiB (10%)
................................................
Plot:
Thor along with his friends travels to mysterious island seeking glory and fame. Upon arriving they.
.................................................. .


SCREEN SHOT

[IMG]http://i46.*******.com/dy0ume.jpg[/IMG]

[IMG]http://i49.*******.com/28k26hi.jpg[/IMG]

DOWNLOAD

التحميل من هنا

Loading...
بوب
BLACK MOOD غير متواجد حالياً  
رد مع اقتباس
قديم 04-19-2011, 06:42 AM
  #2 (permalink)
عضو جديد
تاريخ التسجيل: Jan 2011
المشاركات: 1
معدل تقييم المستوى: 0
king-13 is on a distinguished road
افتراضي

حلوووووووووووووووووووووو عاشت الايادي تحياتي الكم
king-13 غير متواجد حالياً  
رد مع اقتباس
قديم 04-21-2011, 12:47 PM
  #3 (permalink)
عضو جديد
تاريخ التسجيل: Jan 2011
المشاركات: 8
معدل تقييم المستوى: 0
الفرس001 is on a distinguished road
افتراضي

تسلمممممممم
الفرس001 غير متواجد حالياً  
رد مع اقتباس
رد

الكلمات الدليلية
2009, الاكشن, dvdrip, gods, hammer, xvidfeelfree, فيلم, والدراما

تحميل أفلام, افلام مترجمة, تحميل أغاني



الذين يشاهدون محتوى الموضوع الآن : 1 ( الأعضاء 0 والزوار 1)
 
أدوات الموضوع
طرق مشاهدة الموضوع

تعليمات المشاركة
لا تستطيع إضافة مواضيع جديدة
لا تستطيع الرد على المواضيع
لا تستطيع إرفاق ملفات
لا تستطيع تعديل مشاركاتك

BB code is متاحة
كود [IMG] متاحة
كود HTML معطلة
Trackbacks are متاحة
Pingbacks are متاحة
Refbacks are متاحة

المواضيع المتشابهه
الموضوع كاتب الموضوع المنتدى مشاركات آخر مشاركة
فيلم الاكشن The International 2009 DVDRip XViD-GFW AbdUlilaH تحميل الأفلام بالتورنت 100 07-22-2014 02:13 AM
مترجم فيلم الاكشن والدراما الاسباني Celda 211 2009 نسخة DVDRip بحجم 250 mb علي اكثر من سيرفر arabwy أفلام الأكشن والمغامرات والجريمة 10 12-20-2013 01:57 AM
فيلم الاكشن والدراما Tears of the Sun 2003 علي اكثر من سيرفر arabwy أفلام الأكشن والمغامرات والجريمة 5 10-04-2010 08:45 PM
[Multi] Supernatural S05E19 Hammer of the Gods HDTV XviD-FQM [ www.scenetube.net ] ManDoScene تحميل المسلسلات بروابط خارجية 0 04-23-2010 02:46 AM
فيلم الخيال Stargate SG1 Children Of The Gods (2009) DVDRip-AzA AbdUlilaH تحميل الأفلام الأجنبية بروابط خارجية 0 10-15-2009 12:25 AM

كلمات البحث - Keywords
أغاني mp3, مشاهدة افلام, اغنية, mp3, تحميل أغاني, تحميل افلام, مشاهدة مسلسلات,
تحميل اغاني عربي mp3 مشاهدة افلام مترجمة تحميل افلام اجنبي افلام عربي فيلم مترجم

جميع الأوقات بتوقيت GMT. الساعة الآن 01:48 AM.


Disclaimer: This site does not store any files on its server. All contents are provided by non-affiliated third parties

Security byi.s.s.w

 

 
:: تصميم :/ مجنــ قلبي ـون ::





Search Engine Friendly URLs by vBSEO